Torrent Search | Torrent Meta Search | Widgets

Mi iz budushego

2.06 Gb
found 3 years ago
▲ seeders: 15 ▼ leechers:4
your vote:
real:
fake:
Direct Download
THANK YOU
download torrent
  Direct Downloadsponsored

Mi iz budushego torrent

Information about the torrent Mi iz budushego. Seeders, leechers and torrent status is updated everyday.

If you want to download the video torrent Mi iz budushego you will need a torrent client.

Torrent Metasearch.

tracker
seeders
leechers
↓ torrent client compatible list

↑ hide torrent client compatible list

Help torrentproject.com to stay alive .
Add links of torrentproject.com in your favorite forum, blog, youtube, facebook, twitter etc.
reviews
140
torrent contents

Mi_iz_budushego torrent

Mi_iz_budushego
elena_terleeva_-_ti_i_ya.mp36.55 Mb torrent search
Mi_iz_budushego.avi2.06 Gb torrent search

Sample info:
Duration: 02:42:46.68, start: 0.000000, bitrate: 1809 kb/s
Stream #0.0: Video: mpeg4, yuv420p, 688x368, 25.00 tb(r)
Stream #0.1: Audio: mp2, 48000 Hz, stereo, 192 kb/s
 

related search cloud

 budushego  terleeva  elena