Torrent Search | Torrent Meta Search | Widgets

Japanese girl on girl sex massage hidden cam in massage parlor

55.73 Mb
found 1 year ago
▲ seeders: 17 ▼ leechers:3
your vote:
real:
fake:
Direct Download
THANK YOU
download torrent
  Direct Downloadsponsored

Japanese girl on girl sex massage hidden cam in massage parlor torrent

Information about the torrent Japanese girl on girl sex massage hidden cam in massage parlor. Seeders, leechers and torrent status is updated several times per day.

If you want to download the video torrent Japanese girl on girl sex massage hidden cam in massage parlor you will need a torrent client.

Torrent Metasearch.

tracker
seeders
leechers
↓ torrent client compatible list

↑ hide torrent client compatible list

Help torrentproject.com to stay alive .
Add links of torrentproject.com in your favorite forum, blog, youtube, facebook, twitter etc.
reviews
140
torrent contents

Japanese girl on girl sex massage - hidden cam in massage parlor.avi torrent

Japanese girl on girl sex massage - hidden cam in massage parlor.avi55.73 Mb torrent search

Sample info:
Duration: 00:10:50.11, start: 0.000000, bitrate: 719 kb/s
Stream #0:0: Video: mpeg4 (Simple Profile) (FMP4 / 0x34504D46), yuv420p, 320x240 [SAR 1:1 DAR 4:3], 29.97 fps, 29.97 tbr, 29.97 tbn, 2997 tbc
Stream #0:1: Audio: mp2 (P[0][0][0] / 0x0050), 48000 Hz, stereo, s16, 128 kb/s
screenshots
Japanese girl on girl torrent screenshot E1845639AEF4D33D4EB2BDCB1D23055C25B7FF70 Japanese girl on girl  torrent screenshot e1845639aef4d33d4eb2bdcb1d23055c25b7ff70 torrent Japanese girl on girl
Japanese girl on girl sex massage - hidden cam in massage parlor.avi images are auto generated please report any inapropriate images
 

related search cloud

 girl  maage  parlor  hidden  japanese