Torrent Search | Torrent Meta Search | Widgets

Mutti fickt meinen besten Freund

       
1.37 Gb
found 2 years ago
▲ seeders: 11 ▼ leechers:0
your vote:
real:
fake:
Direct Download
THANK YOU
download torrent
  Direct Downloadsponsored

Mutti fickt meinen besten Freund torrent

Information about the torrent Mutti fickt meinen besten Freund. Seeders, leechers and torrent status is updated several times per day.

If you want to download the video torrent Mutti fickt meinen besten Freund you will need a torrent client.

Torrent Metasearch.

Torrent verified by kat.ph.

tracker
seeders
leechers
↓ torrent client compatible list

↑ hide torrent client compatible list

Help torrentproject.com to stay alive .
Add links of torrentproject.com in your favorite forum, blog, youtube, facebook, twitter etc.
reviews
140
torrent contents

Mutti.fickt.meinen.besten.Freund.avi torrent

Mutti.fickt.meinen.besten.Freund.avi1.37 Gb torrent search

Sample info:
Duration: 01:35:39.72, start: 0.000000, bitrate: 2043 kb/s
Stream #0.0: Video: mpeg4 (Advanced Simple Profile), yuv420p, 704x384 [PAR 1:1 DAR 11:6], 25 tbr, 25 tbn, 25 tbc
Stream #0.1: Audio: ac3, 48000 Hz, stereo, s16, 192 kb/s
screenshots
Mutti fickt meinen besten torrent screenshot E1D8999CE95182A251CA0E3B64B4CDD430A28E9A Mutti fickt meinen besten  torrent screenshot e1d8999ce95182a251ca0e3b64b4cdd430a28e9a torrent Mutti fickt meinen besten
Mutti.fickt.meinen.besten.Freund.avi images are auto generated please report any inapropriate images
 

related search cloud

 freund  besten  meinen  fickt  mutti