Torrent Search | Torrent Meta Search | Widgets

Mofos B Sides Bonnie Shai Public Debauchery On The Downtown Bus 01 10 (2014) NEW 10 JAN (2014) NEW

135.83 Mb
found 7 months ago
▲ seeders: 4 ▼ leechers:3
your vote:
real:
fake:
Direct Download
THANK YOU
download torrent
  Direct Downloadsponsored

Mofos B Sides Bonnie Shai Public Debauchery On The Downtown Bus 01 10 (2014) NEW 10 JAN (2014) NEW torrent

Information about the torrent Mofos B Sides Bonnie Shai Public Debauchery On The Downtown Bus 01 10 (2014) NEW 10 JAN (2014) NEW. Seeders, leechers and torrent status is updated everyday.

If you want to download the video torrent Mofos B Sides Bonnie Shai Public Debauchery On The Downtown Bus 01 10 (2014) NEW 10 JAN (2014) NEW you will need a torrent client.

Torrent Metasearch.

tracker
seeders
leechers
↓ torrent client compatible list

↑ hide torrent client compatible list

Help torrentproject.com to stay alive .
Add links of torrentproject.com in your favorite forum, blog, youtube, facebook, twitter etc.
reviews
140
torrent contents

Mofos B Sides - Bonnie Shai - (Public Debauchery On The Downtown Bus 01.10.2014) - NEW 10 JAN 2014 NEW torrent

Mofos B Sides - Bonnie Shai - (Public Debauchery On The Downtown Bus 01.10.2014) - NEW 10 JAN 2014 NEW
mfb_bonnie_shai_ww121813_272p_650_mobile.mp4135.83 Mb torrent search

Sample info:
Duration: 00:23:16.22, start: 0.000000, bitrate: 816 kb/s
Stream #0:0	: Video: h264 (Constrained Baseline) (avc1 / 0x31637661), yuv420p, 480x272 [SAR 136:135 DAR 16:9], 649 kb/s, 23.98 fps, 23.98 tbr, 11988 tbn, 47.95 tbc
handler_name	: VideoHandler
Stream #0:1	: Audio: aac (mp4a / 0x6134706D), 48000 Hz, stereo, s16, 128 kb/s
handler_name	: SoundHandler
Stream #0:2	: Data: none (rtp	/ 0x20707472)
creation_time	: 2014-01-01 21:21:47
handler_name	: GPAC ISO Hint Handler
Stream #0:3	: Data: none (rtp	/ 0x20707472)
creation_time	: 2014-01-01 21:21:49
handler_name	: GPAC ISO Hint Handler
screenshots
Mofos B Sides Bonnie torrent screenshot E2C45FDB7B58B882110BE07775B8ABEBA4BFAC1D Mofos B Sides Bonnie  torrent screenshot e2c45fdb7b58b882110be07775b8abeba4bfac1d torrent Mofos B Sides Bonnie
Mofos B Sides - Bonnie Shai - (Public Debauchery On The Downtown Bus 01.10.2014) - NEW 10 JAN 2014 NEW images are auto generated please report any inapropriate images
 

related search cloud

 bonnie  shai  downtown  mobile  debauchery  public  mofos  sides