Torrent Search | Torrent Meta Search | Widgets

rws dani daniels bb053013 480p 1000

278.7 Mb
found 1 year ago
▲ seeders: 1 ▼ leechers:0
your vote:
real:
fake:
Direct Download
THANK YOU
download torrent
  Direct Downloadsponsored

rws dani daniels bb053013 480p 1000 torrent

Information about the torrent rws dani daniels bb053013 480p 1000. A torrent file stores metadata that can be used from a BitTorrent client.

If you want to download the video torrent rws dani daniels bb053013 480p 1000 you will need a torrent client.

Torrent Metasearch.

tracker
seeders
leechers
↓ torrent client compatible list

↑ hide torrent client compatible list

Help torrentproject.com to stay alive .
Add links of torrentproject.com in your favorite forum, blog, youtube, facebook, twitter etc.
reviews
140
torrent contents

rws_dani_daniels_bb053013_480p_1000.mp4 torrent

rws_dani_daniels_bb053013_480p_1000.mp4278.7 Mb torrent search

Sample info:
Duration: 00:32:59.06, start: 0.000000, bitrate: 1181 kb/s
Stream #0:0	: Video: h264 (High) (avc1 / 0x31637661), yuv420p, 854x480 [SAR 1:1 DAR 427:240], 990 kb/s, 29.97 fps, 29.97 tbr, 11988 tbn, 59.94 tbc
handler_name	: VideoHandler
Stream #0:1	: Audio: aac (mp4a / 0x6134706D), 48000 Hz, stereo, s16, 127 kb/s
handler_name	: SoundHandler
Stream #0:2	: Data: none (rtp	/ 0x20707472)
creation_time	: 2013-07-31 04:30:47
handler_name	: GPAC ISO Hint Handler
Stream #0:3	: Data: none (rtp	/ 0x20707472)
creation_time	: 2013-07-31 04:30:50
handler_name	: GPAC ISO Hint Handler
screenshots
rws dani daniels bb053013 torrent screenshot E40E14A1752A98BC8008DE8F2FD1671AABEB8783 rws dani daniels bb053013  torrent screenshot e40e14a1752a98bc8008de8f2fd1671aabeb8783 torrent rws dani daniels bb053013
rws_dani_daniels_bb053013_480p_1000.mp4 images are auto generated please report any inapropriate images
 

related search cloud

 daniels  dani