Torrent Search | Torrent Meta Search | Widgets

Wasted on the Young (2010)

       
650.74 Mb
found 2 years ago
▲ seeders: 6 ▼ leechers:1
your vote:
real:
fake:
Direct Download
THANK YOU
download torrent
  Direct Downloadsponsored

Wasted on the Young (2010) torrent

Information about the torrent Wasted on the Young (2010). Seeders, leechers and torrent status is updated several times per day.

If you want to download the hdrip torrent Wasted on the Young (2010) you will need a torrent client.

Torrent Metasearch.

Torrent verified by torlock.com.

tracker
seeders
leechers
↓ torrent client compatible list

↑ hide torrent client compatible list

Help torrentproject.com to stay alive .
Add links of torrentproject.com in your favorite forum, blog, youtube, facebook, twitter etc.
reviews
140
torrent contents

Wasted on the Young (2010) torrent

Wasted on the Young (2010)
 Other
AhaShare.com.txt59 bytes torrent search
Torrent downloaded from Demonoid.com - Copy.txt47 bytes torrent search
Torrent Downloaded From ExtraTorrent.com.txt353 bytes torrent search

Wasted on the Young (2010)
Wasted.on.the.Young.2010.720p.BluRay.x264.YIFY.mp4650.61 Mb torrent search
WWW.YIFY-TORRENTS.COM.jpg127.61 Kb torrent search

Sample info:
Duration: 01:36:56.78, start: 0.000000, bitrate: 938 kb/s
Stream #0.0	: Video: h264, yuv420p, 1280x544 [PAR 1:1 DAR 40:17], 871 kb/s, 24 fps, 24 tbr, 96 tbn, 48 tbc
creation_time	: 2011-12-11 04:49:24
Stream #0.1	: Audio: aac, 22050 Hz, stereo, s16, 63 kb/s
creation_time	: 2011-12-11 04:49:45
screenshots
Wasted on the Young torrent screenshot EA8F57201E490ABE3BFF5A58D5630DE65F193944 Wasted on the Young  torrent screenshot ea8f57201e490abe3bff5a58d5630de65f193944 torrent Wasted on the Young
Wasted on the Young (2010) images are auto generated please report any inapropriate images
 

related search cloud

 wasted  young  torrent  yify  downloaded  other  torrents  bluray  extratorrent  demonoid

Torrent Anonymous Download