Torrent Search | Torrent Meta Search | Widgets

Czechav CzechMassage 7 720p

258.29 Mb
found 9 months ago
▲ seeders: 4 ▼ leechers:1
your vote:
real:
fake:
Direct Download
THANK YOU
download torrent
  Direct Downloadsponsored

Czechav CzechMassage 7 720p torrent

Information about the torrent Czechav CzechMassage 7 720p. Seeders, leechers and torrent status is updated several times per day.

If you want to download the hdrip torrent Czechav CzechMassage 7 720p you will need a torrent client.

Torrent Metasearch.

tracker
seeders
leechers
↓ torrent client compatible list

↑ hide torrent client compatible list

Help torrentproject.com to stay alive .
Add links of torrentproject.com in your favorite forum, blog, youtube, facebook, twitter etc.
reviews
140
torrent contents

Czechav - CzechMassage 7 [720p].wmv torrent

Czechav - CzechMassage 7 [720p].wmv258.29 Mb torrent search

Sample info:
Duration: 00:16:26.36, start: 0.000000, bitrate: 2196 kb/s
Stream #0:0: Video: wmv2 (WMV2 / 0x32564D57), yuv420p, 1280x720, 25 tbr, 1k tbn, 1k tbc
Stream #0:1: Audio: wmav2 (a[1][0][0] / 0x0161), 48000 Hz, stereo, s16, 128 kb/s
screenshots
Czechav CzechMassage 7 720p torrent screenshot EB3C6145FEBDE28156F47B527A10C0B718722897 Czechav CzechMassage 7 720p torrent screenshot eb3c6145febde28156f47b527a10c0b718722897 torrent Czechav CzechMassage 7 720p
Czechav - CzechMassage 7 [720p].wmv images are auto generated please report any inapropriate images
 

related search cloud

 czechmaage  czechav