Torrent Search | Torrent Meta Search | Widgets

Wifecrazy Painful Anal

172.7 Mb
found 2 years ago
▲ seeders: 5 ▼ leechers:1
your vote:
real:
fake:
Direct Download
THANK YOU
download torrent
  Direct Downloadsponsored

Wifecrazy Painful Anal torrent

Information about the torrent Wifecrazy Painful Anal. Seeders, leechers and torrent status is updated everyday.

If you want to download the anal torrent Wifecrazy Painful Anal you will need a torrent client.

Torrent Metasearch.

No trackers with seeders or leechers have been found, this doesn't mean that the torrent Wifecrazy Painful Anal is dead
Help torrentproject.com to stay alive .
Add links of torrentproject.com in your favorite forum, blog, youtube, facebook, twitter etc.
reviews
140
torrent contents

Wifecrazy - Painful Anal torrent

Wifecrazy - Painful Anal
painful anal.wmv172.7 Mb torrent search

Sample info:
Duration: 00:10:38.58, start: 0.000000, bitrate: 2268 kb/s
Stream #0.0: Audio: wmapro, 48000 Hz, 5.1, flt, 256 kb/s
Stream #0.1: Video: wmv3 (Main), yuv420p, 720x480, 2000 kb/s, PAR 6:5 DAR 9:5, 29.97 tbr, 1k tbn, 1k tbc
screenshots
Wifecrazy Painful Anal torrent screenshot EFECC9BDAB89077E8D0AEF91724764D1B430C3EA Wifecrazy Painful Anal torrent screenshot efecc9bdab89077e8d0aef91724764d1b430c3ea torrent Wifecrazy Painful Anal
Wifecrazy - Painful Anal images are auto generated please report any inapropriate images
 

related search cloud

 anal  painful  wifecrazy