Torrent Search | Torrent Meta Search | Widgets

Squirting Orgasms How To Step By Step Detailed Technique

691.55 Mb
found 1 year ago
▲ seeders: 14 ▼ leechers:4
your vote:
real:
fake:
Direct Download
THANK YOU
download torrent
  Direct Downloadsponsored

Squirting Orgasms How To Step By Step Detailed Technique torrent

Information about the torrent Squirting Orgasms How To Step By Step Detailed Technique. Seeders, leechers and torrent status is updated several times per day.

If you want to download the video torrent Squirting Orgasms How To Step By Step Detailed Technique you will need a torrent client.

Torrent Metasearch.

tracker
seeders
leechers
↓ torrent client compatible list

↑ hide torrent client compatible list

Help torrentproject.com to stay alive .
Add links of torrentproject.com in your favorite forum, blog, youtube, facebook, twitter etc.
reviews
140
torrent contents

Squirting Orgasms (How To) - Step By Step Detailed Technique.avi torrent

Squirting Orgasms (How To) - Step By Step Detailed Technique.avi691.55 Mb torrent search

Sample info:
Duration: 00:36:49.99, start: 0.000000, bitrate: 2624 kb/s
Stream #0.0: Video: mpeg4 (Simple Profile), yuv420p, 720x416 [PAR 1:1 DAR 45:26], 29.97 tbr, 29.97 tbn, 29.98 tbc
Stream #0.1: Audio: mp3, 44100 Hz, stereo, s16, 128 kb/s
screenshots
Squirting Orgasms How To torrent screenshot F1822AA71A8F4C091EDC4C3C7F216418C92FFE98 Squirting Orgasms How To  torrent screenshot f1822aa71a8f4c091edc4c3c7f216418c92ffe98 torrent Squirting Orgasms How To
Squirting Orgasms (How To) - Step By Step Detailed Technique.avi images are auto generated please report any inapropriate images
 

related search cloud

 step  technique  detailed  squirting  orgasms