Torrent Search | Torrent Meta Search | Widgets

Minna! Esper Dayo! ep06 848x480 x264

207.84 Mb
found 1 year ago
▲ seeders: 2 ▼ leechers:0
your vote:
real:
fake:
Direct Download
THANK YOU
download torrent
  Direct Downloadsponsored

Minna! Esper Dayo! ep06 848x480 x264 torrent

Information about the torrent Minna! Esper Dayo! ep06 848x480 x264. Seeders, leechers and torrent status is updated several times per day.

If you want to download the video torrent Minna! Esper Dayo! ep06 848x480 x264 you will need a torrent client.

Torrent Metasearch.

tracker
seeders
leechers
↓ torrent client compatible list

↑ hide torrent client compatible list

Help torrentproject.com to stay alive .
Add links of torrentproject.com in your favorite forum, blog, youtube, facebook, twitter etc.
reviews
140
torrent contents

Minna! Esper Dayo! ep06 (848x480 x264).mp4 torrent

Minna! Esper Dayo! ep06 (848x480 x264).mp4207.84 Mb torrent search

Sample info:
Duration: 00:29:08.07, start: 0.000000, bitrate: 997 kb/s
Stream #0.0	: Video: h264 (High), yuv420p, 848x480 [PAR 1:1 DAR 53:30], 865 kb/s, 29.97 fps, 29.97 tbr, 30k tbn, 59.94 tbc
creation_time	: 2013-05-25 16:53:02
Stream #0.1	: Audio: aac, 44100 Hz, stereo, s16, 127 kb/s
creation_time	: 2013-05-25 16:40:11
screenshots
Minna Esper Dayo ep06 torrent screenshot F2359E5236C6D8233A6007671CF5D81410E848DA Minna Esper Dayo ep06  torrent screenshot f2359e5236c6d8233a6007671cf5d81410e848da torrent Minna Esper Dayo ep06
Minna! Esper Dayo! ep06 (848x480 x264).mp4 images are auto generated please report any inapropriate images
 

related search cloud

 dayo  esper  minna