Torrent Search | Torrent Meta Search | Widgets

The Art of Getting By (2011) LIMITED DVDRip XviD AMIABLE

       
711.05 Mb
found 2 years ago
▲ seeders: 131 ▼ leechers:26
your vote:
real:
fake:
Direct Download
THANK YOU
download torrent
  Direct Downloadsponsored

The Art of Getting By (2011) LIMITED DVDRip XviD AMIABLE torrent

Information about the torrent The Art of Getting By (2011) LIMITED DVDRip XviD AMIABLE. Seeders, leechers and torrent status is updated everyday.

If you want to download the dvdrip torrent The Art of Getting By (2011) LIMITED DVDRip XviD AMIABLE you will need a torrent client.

Torrent Metasearch.

Torrent verified by torlock.com.

tracker
seeders
leechers
↓ torrent client compatible list

↑ hide torrent client compatible list

Help torrentproject.com to stay alive .
Add links of torrentproject.com in your favorite forum, blog, youtube, facebook, twitter etc.
reviews
140
torrent contents

The.Art.of.Getting.By.2011.LIMITED.DVDRip.XviD-AMIABLE torrent

The.Art.of.Getting.By.2011.LIMITED.DVDRip.XviD-AMIABLE
 Sample
the.art.of.getting.by.2011.dvdrip.xvid-amiable.proof.jpg279.08 Kb torrent search
the.art.of.getting.by.2011.dvdrip.xvid-amiable.sample.avi7.29 Mb torrent search

The.Art.of.Getting.By.2011.LIMITED.DVDRip.XviD-AMIABLE
 Subs
the.art.of.getting.by.2011.dvdrip.xvid-amiable.idx257.59 Kb torrent search
the.art.of.getting.by.2011.dvdrip.xvid-amiable.rar1.51 Mb torrent search
the.art.of.getting.by.2011.dvdrip.xvid-amiable.subs.rar1.76 Mb torrent search
the.art.of.getting.by.2011.dvdrip.xvid-amiable.subs.sfv66 bytes torrent search

The.Art.of.Getting.By.2011.LIMITED.DVDRip.XviD-AMIABLE
the.art.of.getting.by.2011.dvdrip.xvid-amiable.avi699.97 Mb torrent search
the.art.of.getting.by.2011.dvdrip.xvid-amiable.nfo1.56 Kb torrent search

Sample info:
Duration: 01:23:18.99, start: 0.000000, bitrate: 1174 kb/s
Stream #0.0: Video: mpeg4, yuv420p, 608x256 [PAR 1:1 DAR 19:8], 23.98 tbr, 23.98 tbn, 23.98 tbc
Stream #0.1: Audio: mp3, 48000 Hz, 2 channels, s16, 131 kb/s
screenshots
The Art of Getting torrent screenshot F2C3607F8621F4058154AC1B7D586EB3429355DF The Art of Getting  torrent screenshot f2c3607f8621f4058154ac1b7d586eb3429355df torrent The Art of Getting
The.Art.of.Getting.By.2011.LIMITED.DVDRip.XviD-AMIABLE images are auto generated please report any inapropriate images
 

related search cloud

 amiable  getting  xvid  dvdrip  limited  subs  sample  proof

Torrent Anonymous Download