Torrent Search | Torrent Meta Search | Widgets

Perdidos T1 Completa DVDRip XviD AC3

13.05 Gb
found 3 years ago
▲ seeders: 1 ▼ leechers:1
your vote:
real:
fake:
Direct Download
THANK YOU
download torrent
  Direct Downloadsponsored

Perdidos T1 Completa DVDRip XviD AC3 torrent

Information about the torrent Perdidos T1 Completa DVDRip XviD AC3. Seeders, leechers and torrent status is updated everyday.

If you want to download the dvdrip torrent Perdidos T1 Completa DVDRip XviD AC3 you will need a torrent client.

Torrent Metasearch.

tracker
seeders
leechers
↓ torrent client compatible list

↑ hide torrent client compatible list

Help torrentproject.com to stay alive .
Add links of torrentproject.com in your favorite forum, blog, youtube, facebook, twitter etc.
reviews
140
torrent contents

Perdidos.T1.Completa.DVDrip.XviD.AC3.[WwW.DivxTotaL.CoM] torrent

Perdidos.T1.Completa.DVDrip.XviD.AC3.[WwW.DivxTotaL.CoM]
Perdidos.1x01.DVDrip.XviD.AC3.[www.DivxTotal.com].avi494.98 Mb torrent search
Perdidos.1x02.DVDrip.XviD.AC3.[www.DivxTotal.com].avi494.99 Mb torrent search
Perdidos.1x03.DVDrip.XviD.AC3.[www.DivxTotal.com].avi494.98 Mb torrent search
Perdidos.1x04.DVDrip.XviD.AC3.[www.DivxTotal.com].avi494.97 Mb torrent search
Perdidos.1x05.DVDrip.XviD.AC3.[www.DivxTotal.com].avi494.97 Mb torrent search
Perdidos.1x06.DVDrip.XviD.AC3.[www.DivxTotal.com].avi494.98 Mb torrent search
Perdidos.1x07.DVDrip.XviD.AC3.[www.DivxTotal.com].avi494.99 Mb torrent search
Perdidos.1x08.DVDrip.XviD.AC3.[www.DivxTotal.com].avi494.99 Mb torrent search
Perdidos.1x09.DVDrip.XviD.AC3.[www.DivxTotal.com].avi494.99 Mb torrent search
Perdidos.1x10.DVDrip.XviD.AC3.[www.DivxTotal.com].avi494.99 Mb torrent search
Perdidos.1x11.DVDrip.XviD.AC3.[www.DivxTotal.com].avi494.97 Mb torrent search
Perdidos.1x12.DVDrip.XviD.AC3.[www.DivxTotal.com].avi494.98 Mb torrent search
Perdidos.1x13.DVDrip.XviD.AC3.[www.DivxTotal.com].avi495.02 Mb torrent search
Perdidos.1x14.DVDrip.XviD.AC3.[www.DivxTotal.com].avi494.98 Mb torrent search
Perdidos.1x15.DVDrip.XviD.AC3.[www.DivxTotal.com].avi495 Mb torrent search
Perdidos.1x16.DVDrip.XviD.AC3.[www.DivxTotal.com].avi494.99 Mb torrent search
Perdidos.1x17.DVDrip.XviD.AC3.[www.DivxTotal.com].avi494.99 Mb torrent search
Perdidos.1x18.DVDrip.XviD.AC3.[www.DivxTotal.com].avi494.98 Mb torrent search
Perdidos.1x19.DVDrip.XviD.AC3.[www.DivxTotal.com].avi494.97 Mb torrent search
Perdidos.1x20.DVDrip.XviD.AC3.[www.DivxTotal.com].avi494.98 Mb torrent search

Sample info:
Duration: 01:44:32.36, start: 0.000000, bitrate: 869 kb/s
Stream #0.0: Video: mpeg4, yuv420p, 512x384 [PAR 1:1 DAR 4:3], 25 tbr, 25 tbn, 25 tbc
Stream #0.1: Audio: mp3, 48000 Hz, 2 channels, s16, 122 kb/s
screenshots
Perdidos T1 Completa DVDRip torrent screenshot F393800A12DCCEBF62C876C571AF3CBF405226AA Perdidos T1 Completa DVDRip  torrent screenshot f393800a12dccebf62c876c571af3cbf405226aa torrent Perdidos T1 Completa DVDRip
Perdidos.T1.Completa.DVDrip.XviD.AC3.[WwW.DivxTotaL.CoM] images are auto generated please report any inapropriate images
 

related search cloud

 xvid  perdidos  dvdrip  divxtotal  completa