Torrent Search | Torrent Meta Search | Widgets

WZF Shingeki no Kyojin Capitulo 13 5~14 HD X264 AAC 1280x720 Sub Esp

596.92 Mb
found 1 year ago
▲ seeders: 1 ▼ leechers:0
your vote:
real:
fake:
Direct Download
THANK YOU
download torrent
  Direct Downloadsponsored

WZF Shingeki no Kyojin Capitulo 13 5~14 HD X264 AAC 1280x720 Sub Esp torrent

Information about the torrent WZF Shingeki no Kyojin Capitulo 13 5~14 HD X264 AAC 1280x720 Sub Esp. Seeders, leechers and torrent status is updated several times per day.

If you want to download the video torrent WZF Shingeki no Kyojin Capitulo 13 5~14 HD X264 AAC 1280x720 Sub Esp you will need a torrent client.

Torrent Metasearch.

tracker
seeders
leechers
↓ torrent client compatible list

↑ hide torrent client compatible list

Help torrentproject.com to stay alive .
Add links of torrentproject.com in your favorite forum, blog, youtube, facebook, twitter etc.
reviews
140
torrent contents

[WZF]Shingeki_no_Kyojin_-_Capitulo_13.5~14[HD][X264-AAC][1280x720][Sub_Esp] torrent

[WZF]Shingeki_no_Kyojin_-_Capitulo_13.5~14[HD][X264-AAC][1280x720][Sub_Esp]
[WZF]Shingeki_no_Kyojin_-_Capitulo_13.5[HD][X264-AAC][1280x720][Sub_Esp].mp4304.06 Mb torrent search
[WZF]Shingeki_no_Kyojin_-_Capitulo_14[HD][X264-AAC][1280x720][Sub_Esp].mp4292.86 Mb torrent search

Sample info:
Duration: 00:24:06.67, start: 0.000000, bitrate: 1763 kb/s
Stream #0:0	: Video: h264 (High) (avc1 / 0x31637661), yuv420p, 1280x720, 1570 kb/s, 23.98 fps, 23.98 tbr, 24k tbn, 47.95 tbc
creation_time	: 2013-07-18 17:50:24
handler_name	: L-SMASH Video Media Handler
Stream #0:1	: Audio: aac (mp4a / 0x6134706D), 48000 Hz, stereo, s16, 188 kb/s
creation_time	: 2013-07-18 17:51:03
screenshots
WZF Shingeki no Kyojin torrent screenshot F47ABF7C1A03FD373D4C40C298E687AF06B22126 WZF Shingeki no Kyojin  torrent screenshot f47abf7c1a03fd373d4c40c298e687af06b22126 torrent WZF Shingeki no Kyojin
[WZF]Shingeki_no_Kyojin_-_Capitulo_13.5~14[HD][X264-AAC][1280x720][Sub_Esp] images are auto generated please report any inapropriate images
 

related search cloud

 capitulo  kyojin  shingeki