Torrent Search | Torrent Meta Search | Widgets

Oni srajalis za Rodinu 1975

2.17 Gb
found 4 years ago
▲ seeders: 129 ▼ leechers:9
your vote:
real:
fake:
Direct Download
THANK YOU
download torrent
  Direct Downloadsponsored

Oni srajalis za Rodinu 1975 torrent

Information about the torrent Oni srajalis za Rodinu 1975. Seeders, leechers and torrent status is updated everyday.

If you want to download the video torrent Oni srajalis za Rodinu 1975 you will need a torrent client.

Torrent Metasearch.

tracker
seeders
leechers
↓ torrent client compatible list

↑ hide torrent client compatible list

Help torrentproject.com to stay alive .
Add links of torrentproject.com in your favorite forum, blog, youtube, facebook, twitter etc.
reviews
140
torrent contents

Oni.srajalis.za.Rodinu.1975 torrent

Oni.srajalis.za.Rodinu.1975
01.Oni.srajalis.za.Rodinu.avi1.12 Gb torrent search
02.Oni.srajalis.za.Rodinu.avi1.05 Gb torrent search

Sample info:
Duration: 01:18:06.32, start: 0.000000, bitrate: 2056 kb/s
Stream #0.0: Video: mpeg4, yuv420p, 656x512 [PAR 1:1 DAR 41:32], 25.00 tb(r)
Stream #0.1: Audio: ac3, 48000 Hz, stereo, 192 kb/s
screenshots
Oni srajalis za Rodinu torrent screenshot F7265365DFA7D0B8D0F7CE6A48E3B32829A86E4F Oni srajalis za Rodinu  torrent screenshot f7265365dfa7d0b8d0f7ce6a48e3b32829a86e4f torrent Oni srajalis za Rodinu
Oni.srajalis.za.Rodinu.1975 images are auto generated please report any inapropriate images
 

related search cloud

 rodinu  srajalis