Torrent Search | Torrent Meta Search | Widgets

Community Sex Kayden Kross

231.67 Mb
found 7 months ago
▲ seeders: 3 ▼ leechers:3
your vote:
real:
fake:
Direct Download
THANK YOU
download torrent
  Direct Downloadsponsored

Community Sex Kayden Kross torrent

Information about the torrent Community Sex Kayden Kross. A torrent file stores metadata that can be used from a BitTorrent client.

If you want to download the video torrent Community Sex Kayden Kross you will need a torrent client.

Torrent Metasearch.

tracker
seeders
leechers
↓ torrent client compatible list

↑ hide torrent client compatible list

Help torrentproject.com to stay alive .
Add links of torrentproject.com in your favorite forum, blog, youtube, facebook, twitter etc.
reviews
140
torrent contents

Community Sex - Kayden Kross.mp4 torrent

Community Sex - Kayden Kross.mp4231.67 Mb torrent search

Sample info:
Duration: 00:18:44.10, start: 0.000000, bitrate: 1728 kb/s
Stream #0:0	: Video: h264 (Constrained Baseline) (avc1 / 0x31637661), yuv420p, 720x404 [SAR 404:405 DAR 16:9], 1616 kb/s, 23.98 fps, 23.98 tbr, 24k tbn, 47.95 tbc
handler_name	: VideoHandler
Stream #0:1	: Audio: aac (mp4a / 0x6134706D), 48000 Hz, stereo, s16, 109 kb/s
handler_name	: SoundHandler
screenshots
Community Sex Kayden Kross torrent screenshot FC08BB3BBE4B6A69737AC5FEF6EB1FB3ACF91BFB Community Sex Kayden Kross torrent screenshot fc08bb3bbe4b6a69737ac5fef6eb1fb3acf91bfb torrent Community Sex Kayden Kross
Community Sex - Kayden Kross.mp4 images are auto generated please report any inapropriate images
 

related search cloud

 kayden  community

Torrent Anonymous Download