Torrent Search | Torrent Meta Search | Widgets

Supernatural S07E16 HDTV x264 LOL

       
255.83 Mb
found 2 years ago
▲ seeders: 18 ▼ leechers:2
your vote:
real:
fake:
Direct Download
THANK YOU
download torrent
  Direct Downloadsponsored

Supernatural S07E16 HDTV x264 LOL torrent

Information about the torrent Supernatural S07E16 HDTV x264 LOL. Seeders, leechers and torrent status is updated everyday.

If you want to download the tv torrent Supernatural S07E16 HDTV x264 LOL you will need a torrent client.

Torrent Metasearch.

.

tracker
seeders
leechers
↓ torrent client compatible list

↑ hide torrent client compatible list

Help torrentproject.com to stay alive .
Add links of torrentproject.com in your favorite forum, blog, youtube, facebook, twitter etc.
reviews
140
torrent contents

Supernatural.S07E16.HDTV.x264-LOL.mp4 torrent

Supernatural.S07E16.HDTV.x264-LOL.mp4255.83 Mb torrent search

Sample info:
Duration: 00:41:48.88, start: 0.000000, bitrate: 855 kb/s
Stream #0.0	: Video: h264, yuv420p, 720x404, 727 kb/s, 23.98 fps, 23.98 tbr, 24k tbn, 47.95 tbc
creation_time	: 2012-03-16 17:06:53
Stream #0.1	: Audio: aac, 48000 Hz, stereo, s16, 123 kb/s
creation_time	: 2012-03-16 17:26:03
screenshots
Supernatural S07E16 HDTV x264 torrent screenshot 0063C499DFDBF5918E5FC54D4529BDF05CB0F06A Supernatural S07E16 HDTV x264  torrent screenshot 0063c499dfdbf5918e5fc54d4529bdf05cb0f06a torrent Supernatural S07E16 HDTV x264
Supernatural.S07E16.HDTV.x264-LOL.mp4 images are auto generated please report any inapropriate images
 

related search cloud

 hdtv  supernatural

Torrent Anonymous Download