Torrent Search | Torrent Meta Search | Widgets

Alvin And The Chipmunks Chipwrecked (2011) BluRay 720p AC3 x264 3Li

       
3.24 Gb
found 2 years ago
▲ seeders: 3 ▼ leechers:1
your vote:
real:
fake:
Direct Download
THANK YOU
download torrent
  Direct Downloadsponsored

Alvin And The Chipmunks Chipwrecked (2011) BluRay 720p AC3 x264 3Li torrent

Information about the torrent Alvin And The Chipmunks Chipwrecked (2011) BluRay 720p AC3 x264 3Li. Seeders, leechers and torrent status is updated several times per day.

If you want to download the hdrip torrent Alvin And The Chipmunks Chipwrecked (2011) BluRay 720p AC3 x264 3Li you will need a torrent client.

Torrent Metasearch.

Torrent verified by kat.ph.

tracker
seeders
leechers
↓ torrent client compatible list

↑ hide torrent client compatible list

Help torrentproject.com to stay alive .
Add links of torrentproject.com in your favorite forum, blog, youtube, facebook, twitter etc.
reviews
140
torrent contents

Alvin And The Chipmunks Chipwrecked 2011 BluRay 720p AC3 x264-3Li torrent

Alvin And The Chipmunks Chipwrecked 2011 BluRay 720p AC3 x264-3Li
 Sample,Screens,Poster
Alvin And The Chipmunks Chipwrecked Screen 5.png1.23 Mb torrent search
Alvin And The Chipmunks Chipwrecked Screen 6.png1.53 Mb torrent search
Alvin And The Chipmunks Chipwrecked Poster.jpg532.05 Kb torrent search
Alvin And The Chipmunks Chipwrecked Screen 3.png1.38 Mb torrent search
Alvin And The Chipmunks Chipwrecked Sample.mkv36.26 Mb torrent search
Alvin And The Chipmunks Chipwrecked Screen 4.png1.53 Mb torrent search
Alvin And The Chipmunks Chipwrecked Screen 2.png1.23 Mb torrent search
Alvin And The Chipmunks Chipwrecked Screen 1.png1.17 Mb torrent search

Alvin And The Chipmunks Chipwrecked 2011 BluRay 720p AC3 x264-3Li
 Subtitle,info
3Li info Movie Alvin And The Chipmunks Chipwrecked.nfo1.16 Kb torrent search
Alvin And The Chipmunks Chipwrecked 2011 3Li BluRay Russian.srt101.05 Kb torrent search
Torrent Downloaded From ExtraTorrent.com.txt364 bytes torrent search
Alvin And The Chipmunks Chipwrecked 2011 3Li BluRay English.srt103.57 Kb torrent search
Alvin And The Chipmunks Chipwrecked 2011 3Li BluRay English (Hearing Impaired).srt110.89 Kb torrent search
Alvin And The Chipmunks Chipwrecked 2011 3Li BluRay Romanian.srt77.08 Kb torrent search

Alvin And The Chipmunks Chipwrecked 2011 BluRay 720p AC3 x264-3Li
Alvin And The Chipmunks Chipwrecked 2011 3Li BluRay.mkv3.2 Gb torrent search

Sample info:
Duration: 01:27:09.92, start: 0.000000, bitrate: 640 kb/s
Stream #0.0(eng): Video: h264, yuv420p, 1280x688 [PAR 1:1 DAR 80:43], 23.98 fps, 24 tbr, 1k tbn, 47.95 tbc
title	: Alvin And The Chipmunks Chipwrecked By 3Li
Stream #0.1(eng): Audio: ac3, 48000 Hz, 5.1, s16, 640 kb/s
title	: Alvin And The Chipmunks Chipwrecked
screenshots
Alvin And The Chipmunks torrent screenshot 00B0E8B93D696E722CC90AE0E035A75913B42BDD Alvin And The Chipmunks  torrent screenshot 00b0e8b93d696e722cc90ae0e035a75913b42bdd torrent Alvin And The Chipmunks
Alvin And The Chipmunks Chipwrecked 2011 BluRay 720p AC3 x264-3Li images are auto generated please report any inapropriate images
 

related search cloud

 alvin  chipwrecked  chipmunks  bluray  screen  english  info  sample  poster  hearing

Torrent Anonymous Download