Torrent Search | Torrent Meta Search | Widgets

Johnny English Reborn (2011) TS NL subs DutchReleaseTeam Komedie

       
1.21 Gb
found 2 years ago
▲ seeders: 6 ▼ leechers:2
your vote:
real:
fake:
Direct Download
THANK YOU
download torrent
  Direct Downloadsponsored

Johnny English Reborn (2011) TS NL subs DutchReleaseTeam Komedie torrent

Information about the torrent Johnny English Reborn (2011) TS NL subs DutchReleaseTeam Komedie. Seeders, leechers and torrent status is updated several times per day.

If you want to download the video torrent Johnny English Reborn (2011) TS NL subs DutchReleaseTeam Komedie you will need a torrent client.

Torrent Metasearch.

Torrent verified by thepiratebay.org.

tracker
seeders
leechers
↓ torrent client compatible list

↑ hide torrent client compatible list

Help torrentproject.com to stay alive .
Add links of torrentproject.com in your favorite forum, blog, youtube, facebook, twitter etc.
reviews
140
torrent contents

Johnny English Reborn (2011) TS NL subs DutchReleaseTeam [Komedie] torrent

Johnny English Reborn (2011) TS NL subs DutchReleaseTeam [Komedie]
Johnny English Reborn (2011) TS NL subs DutchReleaseTeam [Komedie].avi1.2 Gb torrent search
sample.avi8.07 Mb torrent search
Koedje.png115.78 Kb torrent search
Multimediacafe.png105.06 Kb torrent search
Screenshot1.jpg46.39 Kb torrent search
Screenshot3.jpg43.77 Kb torrent search
Screenshot2.jpg36.88 Kb torrent search
Screenshot4.jpg15.38 Kb torrent search
DutchReleaseTeam NFO.txt474 bytes torrent search
Torrent downloaded from Demonoid.me.txt46 bytes torrent search

Sample info:
Duration: 01:35:23.68, start: 0.000000, bitrate: 1808 kb/s
Stream #0.0: Video: mpeg4, yuv420p, 672x282 [PAR 1:1 DAR 112:47], 25 tbr, 25 tbn, 25 tbc
Stream #0.1: Audio: mp3, 48000 Hz, 2 channels, s16, 128 kb/s
screenshots
Johnny English Reborn 2011 torrent screenshot 12B119109A56D3D21E89658FD50364F132E27A35 Johnny English Reborn 2011  torrent screenshot 12b119109a56d3d21e89658fd50364f132e27a35 torrent Johnny English Reborn 2011
Johnny English Reborn (2011) TS NL subs DutchReleaseTeam [Komedie] images are auto generated please report any inapropriate images
Torrent Anonymous Download