Torrent Search | Torrent Meta Search | Widgets

Johnny English Reborn (2011) Cam x264 Feel Free

       
1.16 Gb
found 3 years ago
▲ seeders: 15 ▼ leechers:0
your vote:
real:
fake:
Direct Download
THANK YOU
download torrent
  Direct Downloadsponsored

Johnny English Reborn (2011) Cam x264 Feel Free torrent

Information about the torrent Johnny English Reborn (2011) Cam x264 Feel Free. Seeders, leechers and torrent status is updated several times per day.

If you want to download the video torrent Johnny English Reborn (2011) Cam x264 Feel Free you will need a torrent client.

Torrent Metasearch.

Torrent verified by thepiratebay.org.

tracker
seeders
leechers
↓ torrent client compatible list

↑ hide torrent client compatible list

Help torrentproject.com to stay alive .
Add links of torrentproject.com in your favorite forum, blog, youtube, facebook, twitter etc.
reviews
140
torrent contents

Johnny.English.Reborn.2011.Cam.x264.Feel-Free torrent

Johnny.English.Reborn.2011.Cam.x264.Feel-Free
3qxzd7kwnvmem3khs1o.jpg85.45 Kb torrent search
Johnny.English.Reborn.2011.Cam.x264.Feel-Free.2.79 Kb torrent search
Johnny.English.Reborn.2011.Cam.x264.Feel-Free.mp41.16 Gb torrent search
Torrent downloaded from Extratorrent.com.txt171 bytes torrent search
vlcsnap-00001.png184.73 Kb torrent search
vlcsnap-00002.png157.13 Kb torrent search
vlcsnap-00003.png221.53 Kb torrent search
vlcsnap-00004.png123.12 Kb torrent search

Sample info:
Duration: 01:35:23.75, start: 0.000000, bitrate: 1734 kb/s
Stream #0.0	: Video: h264, yuv420p, 672x280 [PAR 1:1 DAR 12:5], 1506 kb/s, 25 fps, 25 tbr, 25k tbn, 50 tbc
creation_time	: 2011-09-25 16:24:45
Stream #0.1	: Audio: aac, 48000 Hz, stereo, s16, 224 kb/s
creation_time	: 2011-09-25 16:25:32
screenshots
Johnny English Reborn 2011 torrent screenshot 148608EF33CCD62B4103E66D572FD484CCB2ACE6 Johnny English Reborn 2011  torrent screenshot 148608ef33ccd62b4103e66d572fd484ccb2ace6 torrent Johnny English Reborn 2011
Johnny.English.Reborn.2011.Cam.x264.Feel-Free images are auto generated please report any inapropriate images
 

related search cloud

 vlcsnap  johnny  free  feel  english  reborn  extratorrent  downloaded  qxzd  kwnvmem

Torrent Anonymous Download