Torrent Search | Torrent Meta Search | Widgets

Johnny English DVDRip XviD Anth

       
698.38 Mb
found 3 years ago
▲ seeders: 11 ▼ leechers:1
your vote:
real:
fake:
Direct Download
THANK YOU
download torrent
  Direct Downloadsponsored

Johnny English DVDRip XviD Anth torrent

Information about the torrent Johnny English DVDRip XviD Anth. Seeders, leechers and torrent status is updated everyday.

If you want to download the dvdrip torrent Johnny English DVDRip XviD Anth you will need a torrent client.

Torrent Metasearch.

Torrent verified by isohunt.com.

tracker
seeders
leechers
↓ torrent client compatible list

↑ hide torrent client compatible list

Help torrentproject.com to stay alive .
Add links of torrentproject.com in your favorite forum, blog, youtube, facebook, twitter etc.
reviews
140
torrent contents

Johnny.English.DVDRip.XviD-Anth torrent

Johnny.English.DVDRip.XviD-Anth
Johnny.English.DVDRip.XviD-Anth.avi698.38 Mb torrent search
Johnny.English.DVDRip.XviD-Anth.nfo1.73 Kb torrent search

Sample info:
Duration: 01:23:50.00, start: 0.000000, bitrate: 1164 kb/s
Stream #0.0: Video: mpeg4 (Advanced Simple Profile), yuv420p, 672x352 [PAR 1:1 DAR 21:11], 25 tbr, 25 tbn, 25 tbc
Stream #0.1: Audio: mp3, 48000 Hz, stereo, s16, 127 kb/s
screenshots
Johnny English DVDRip XviD torrent screenshot 1E60D2E1FCE4D37259E66F6006CC9DAEA5AAAB8E Johnny English DVDRip XviD  torrent screenshot 1e60d2e1fce4d37259e66f6006cc9daea5aaab8e torrent Johnny English DVDRip XviD
Johnny.English.DVDRip.XviD-Anth images are auto generated please report any inapropriate images
 

related search cloud

 anth  xvid  dvdrip  english  johnny

Torrent Anonymous Download