Torrent Search | Torrent Meta Search | Widgets

Sara Jay Johnny Castle MyFriendsHotMom 10 17 (2011)

       
426.97 Mb
found 2 years ago
▲ seeders: 6 ▼ leechers:1
your vote:
real:
fake:
Direct Download
THANK YOU
download torrent
  Direct Downloadsponsored

Sara Jay Johnny Castle MyFriendsHotMom 10 17 (2011) torrent

Information about the torrent Sara Jay Johnny Castle MyFriendsHotMom 10 17 (2011). Seeders, leechers and torrent status is updated everyday.

If you want to download the video torrent Sara Jay Johnny Castle MyFriendsHotMom 10 17 (2011) you will need a torrent client.

Torrent Metasearch.

Torrent verified by kat.ph.

tracker
seeders
leechers
↓ torrent client compatible list

↑ hide torrent client compatible list

Help torrentproject.com to stay alive .
Add links of torrentproject.com in your favorite forum, blog, youtube, facebook, twitter etc.
reviews
140
torrent contents

Sara.Jay.Johnny.Castle.MyFriendsHotMom.10.17.2011.wmv torrent

Sara.Jay.Johnny.Castle.MyFriendsHotMom.10.17.2011.wmv426.97 Mb torrent search

Sample info:
Duration: 00:28:23.25, start: 5.000000, bitrate: 2102 kb/s
Stream #0.0(eng): Audio: wmav2, 48000 Hz, 2 channels, s16, 96 kb/s
Stream #0.1(eng): Video: wmv3, yuv420p, 850x480, 2000 kb/s, 23.98 tbr, 1k tbn, 1k tbc
screenshots
Sara Jay Johnny Castle torrent screenshot 3065DB103A876A72481C018FE64EBF2EC8CB7C87 Sara Jay Johnny Castle  torrent screenshot 3065db103a876a72481c018fe64ebf2ec8cb7c87 torrent Sara Jay Johnny Castle
Sara.Jay.Johnny.Castle.MyFriendsHotMom.10.17.2011.wmv images are auto generated please report any inapropriate images
 

related search cloud

 myfriendshotmom  castle  johnny  sara

Torrent Anonymous Download