Torrent Search | Torrent Meta Search | Widgets

Johnny English Reborn (2011) 720p BluRay x264 HAiDEAF

       
4.37 Gb
found 2 years ago
▲ seeders: 11 ▼ leechers:3
your vote:
real:
fake:
Direct Download
THANK YOU
download torrent
  Direct Downloadsponsored

Johnny English Reborn (2011) 720p BluRay x264 HAiDEAF torrent

Information about the torrent Johnny English Reborn (2011) 720p BluRay x264 HAiDEAF. Seeders, leechers and torrent status is updated everyday.

If you want to download the hdrip torrent Johnny English Reborn (2011) 720p BluRay x264 HAiDEAF you will need a torrent client.

Torrent Metasearch.

Torrent verified by kat.ph.

tracker
seeders
leechers
↓ torrent client compatible list

↑ hide torrent client compatible list

Help torrentproject.com to stay alive .
Add links of torrentproject.com in your favorite forum, blog, youtube, facebook, twitter etc.
reviews
140
torrent contents

Johnny English Reborn 2011 720p BluRay x264-HAiDEAF torrent

Johnny English Reborn 2011 720p BluRay x264-HAiDEAF
Read Me.txt60 bytes torrent search
Torrent Downloaded From ExtraTorrent.com.txt41 bytes torrent search
haideaf-jer.nfo742 bytes torrent search
johnny.english.reborn.720p.bluray.x264-haideaf.mkv4.37 Gb torrent search

Sample info:
Duration: 01:41:21.61, start: 0.000000, bitrate: 1536 kb/s
Stream #0.0(eng): Video: h264 (High), yuv420p, 1280x528 [PAR 1:1 DAR 80:33], 23.98 fps, 23.98 tbr, 1k tbn, 47.95 tbc (default)
Stream #0.1(eng): Audio: dca (DTS), 48000 Hz, 5.1, s16, 1536 kb/s (default)
title	: English DTS 1509kbps
screenshots
Johnny English Reborn 2011 torrent screenshot 4C1DB77F42B1AB2665B0A6CAE5B3C949F345A152 Johnny English Reborn 2011  torrent screenshot 4c1db77f42b1ab2665b0a6cae5b3c949f345a152 torrent Johnny English Reborn 2011
Johnny English Reborn 2011 720p BluRay x264-HAiDEAF images are auto generated please report any inapropriate images
 

related search cloud

 haideaf  english  bluray  johnny  reborn  extratorrent  downloaded  torrent  read

Torrent Anonymous Download