Torrent Search | Torrent Meta Search | Widgets

Johnny English Reborn (2011) DVDRip XviD MAXSPEED

       
1.47 Gb
found 2 years ago
▲ seeders: 118 ▼ leechers:20
your vote:
real:
fake:
Direct Download
THANK YOU
download torrent
  Direct Downloadsponsored

Johnny English Reborn (2011) DVDRip XviD MAXSPEED torrent

Information about the torrent Johnny English Reborn (2011) DVDRip XviD MAXSPEED. Seeders, leechers and torrent status is updated everyday.

If you want to download the dvdrip torrent Johnny English Reborn (2011) DVDRip XviD MAXSPEED you will need a torrent client.

Torrent Metasearch.

Torrent verified by kat.ph.

tracker
seeders
leechers
↓ torrent client compatible list

↑ hide torrent client compatible list

Help torrentproject.com to stay alive .
Add links of torrentproject.com in your favorite forum, blog, youtube, facebook, twitter etc.
reviews
140
torrent contents

Johnny English Reborn (2011) DVDRip XviD-MAXSPEED torrent

Johnny English Reborn (2011) DVDRip XviD-MAXSPEED
Johnny English Reborn (2011) DVDRip XviD-MAXSPEED www.torentz.3xforum.ro.avi1.45 Gb torrent search
sample.avi15.26 Mb torrent search
screencaps.jpeg557.38 Kb torrent search
Johnny English Reborn (2011) DVDRip XviD-MAXSPEED.nfo2.82 Kb torrent search
Torrent downloaded from Demonoid.me.txt46 bytes torrent search
Torrent downloaded from Extratorrent.com.txt40 bytes torrent search
Torrent downloaded from Rarbg.com.txt33 bytes torrent search
Torrent downloaded from h33t.com.txt32 bytes torrent search

Sample info:
Duration: 01:37:15.20, start: 0.000000, bitrate: 2134 kb/s
Stream #0.0: Video: mpeg4 (Advanced Simple Profile), yuv420p, 720x304 [PAR 1:1 DAR 45:19], 25 tbr, 25 tbn, 25 tbc
Stream #0.1: Audio: ac3, 44100 Hz, 5.1, s16, 384 kb/s
title	: aaa
screenshots
Johnny English Reborn 2011 torrent screenshot 58C549640BF5DB8068FD0B44113363F9F2EBDD66 Johnny English Reborn 2011  torrent screenshot 58c549640bf5db8068fd0b44113363f9f2ebdd66 torrent Johnny English Reborn 2011
Johnny English Reborn (2011) DVDRip XviD-MAXSPEED images are auto generated please report any inapropriate images
 

related search cloud

 downloaded  torrent  xvid  johnny  maxspeed  english  dvdrip  reborn  rarbg  demonoid

Torrent Anonymous Download