Torrent Search | Torrent Meta Search | Widgets

Johnny English (2011) Reborn BDRip XviD AbSurdiTy

       
702.5 Mb
found 2 years ago
▲ seeders: 14 ▼ leechers:1
your vote:
real:
fake:
Direct Download
THANK YOU
download torrent
  Direct Downloadsponsored

Johnny English (2011) Reborn BDRip XviD AbSurdiTy torrent

Information about the torrent Johnny English (2011) Reborn BDRip XviD AbSurdiTy. Seeders, leechers and torrent status is updated everyday.

If you want to download the video torrent Johnny English (2011) Reborn BDRip XviD AbSurdiTy you will need a torrent client.

Torrent Metasearch.

Torrent verified by kat.ph.

tracker
seeders
leechers
↓ torrent client compatible list

↑ hide torrent client compatible list

Help torrentproject.com to stay alive .
Add links of torrentproject.com in your favorite forum, blog, youtube, facebook, twitter etc.
reviews
140
torrent contents

Johnny English 2011 Reborn BDRip XviD AbSurdiTy torrent

Johnny English 2011 Reborn BDRip XviD AbSurdiTy
AbSurDiTy.nfo6.59 Kb torrent search
Johnny English 2011 Reborn BDRip XviD AbSurdiTy.avi702.49 Mb torrent search
Torrent Downloaded from Extratorrent.com.txt36 bytes torrent search
Torrent Downloaded from Hiddenstatus.com.txt159 bytes torrent search

Sample info:
Duration: 01:41:19.36, start: 0.000000, bitrate: 969 kb/s
Stream #0.0: Video: mpeg4 (Advanced Simple Profile), yuv420p, 672x288 [PAR 1:1 DAR 7:3], 23.98 tbr, 23.98 tbn, 23.98 tbc
Stream #0.1: Audio: mp3, 48000 Hz, stereo, s16, 128 kb/s
screenshots
Johnny English 2011 Reborn torrent screenshot 63E7DA2038147CB20561EAE2A559B70C22A2DEB3 Johnny English 2011 Reborn  torrent screenshot 63e7da2038147cb20561eae2a559b70c22a2deb3 torrent Johnny English 2011 Reborn
Johnny English 2011 Reborn BDRip XviD AbSurdiTy images are auto generated please report any inapropriate images
 

related search cloud

 absurdity  torrent  downloaded  johnny  xvid  bdrip  english  reborn  hiddenstatus  extratorrent

Torrent Anonymous Download