Torrent Search | Torrent Meta Search | Widgets

Johnny English Reborn BDRip XviD DoNE

       
708.44 Mb
found 2 years ago
▲ seeders: 4 ▼ leechers:1
your vote:
real:
fake:
Direct Download
THANK YOU
download torrent
  Direct Downloadsponsored

Johnny English Reborn BDRip XviD DoNE torrent

Information about the torrent Johnny English Reborn BDRip XviD DoNE. Seeders, leechers and torrent status is updated everyday.

If you want to download the video torrent Johnny English Reborn BDRip XviD DoNE you will need a torrent client.

Torrent Metasearch.

Torrent verified by kat.ph.

tracker
seeders
leechers
↓ torrent client compatible list

↑ hide torrent client compatible list

Help torrentproject.com to stay alive .
Add links of torrentproject.com in your favorite forum, blog, youtube, facebook, twitter etc.
reviews
140
torrent contents

[ UsaBit.com ] - Johnny.English.Reborn.BDRip.XviD-DoNE torrent

[ UsaBit.com ] - Johnny.English.Reborn.BDRip.XviD-DoNE
 Sample
jer.sample-done.avi6.94 Mb torrent search

[ UsaBit.com ] - Johnny.English.Reborn.BDRip.XviD-DoNE
 Subs
jer.subs-done.rar880.35 Kb torrent search
jer.subs-done.sfv28 bytes torrent search

[ UsaBit.com ] - Johnny.English.Reborn.BDRip.XviD-DoNE
fanart.jpg215.49 Kb torrent search
folder.jpg268.47 Kb torrent search
jer-done.avi700.17 Mb torrent search
jer-done.nfo7.55 Kb torrent search
www.UsaBit.com.txt1 bytes torrent search

Sample info:
Duration: 01:41:21.70, start: 0.000000, bitrate: 965 kb/s
Stream #0.0: Video: mpeg4, yuv420p, 640x272 [PAR 1:1 DAR 40:17], 23.98 tbr, 23.98 tbn, 23.98 tbc
Stream #0.1: Audio: mp3, 48000 Hz, stereo, s16, 32 kb/s
screenshots
Johnny English Reborn BDRip torrent screenshot 7A2ED4F602117D4CAB22E4C0FCBD983A2A4921FB Johnny English Reborn BDRip  torrent screenshot 7a2ed4f602117d4cab22e4c0fcbd983a2a4921fb torrent Johnny English Reborn BDRip
[ UsaBit.com ] - Johnny.English.Reborn.BDRip.XviD-DoNE images are auto generated please report any inapropriate images
 

related search cloud

 done  usabit  subs  bdrip  xvid  reborn  english  johnny  sample  folder

Torrent Anonymous Download