Torrent Search | Torrent Meta Search | Widgets

Johnny English Reborn (2011) TS2DVD DD2 0 NL Subs EE Rel NL

       
3.88 Gb
found 2 years ago
▲ seeders: 6 ▼ leechers:0
your vote:
real:
fake:
Direct Download
THANK YOU
download torrent
  Direct Downloadsponsored

Johnny English Reborn (2011) TS2DVD DD2 0 NL Subs EE Rel NL torrent

Information about the torrent Johnny English Reborn (2011) TS2DVD DD2 0 NL Subs EE Rel NL. Seeders, leechers and torrent status is updated everyday.

If you want to download the dvd torrent Johnny English Reborn (2011) TS2DVD DD2 0 NL Subs EE Rel NL you will need a torrent client.

Torrent Metasearch.

Torrent verified by thepiratebay.org.

tracker
seeders
leechers
↓ torrent client compatible list

↑ hide torrent client compatible list

Help torrentproject.com to stay alive .
Add links of torrentproject.com in your favorite forum, blog, youtube, facebook, twitter etc.
reviews
140
torrent contents

Johnny.English.Reborn.2011.TS2DVD.DD2.0.NL.Subs.EE.Rel.NL torrent

Johnny.English.Reborn.2011.TS2DVD.DD2.0.NL.Subs.EE.Rel.NL
 Johnny.English.Reborn.2011.TS2DVD.DD2.0.NL.Subs.EE.Rel.NL
 VIDEO_TS
VTS_01_1.VOB1000.19 Mb torrent search
VTS_01_3.VOB1000.15 Mb torrent search
VTS_01_2.VOB999.92 Mb torrent search
VTS_01_4.VOB974.7 Mb torrent search
VTS_01_0.BUP64 Kb torrent search
VTS_01_0.IFO64 Kb torrent search
VIDEO_TS.VOB40 Kb torrent search
VIDEO_TS.IFO12 Kb torrent search
VIDEO_TS.BUP12 Kb torrent search

Johnny.English.Reborn.2011.TS2DVD.DD2.0.NL.Subs.EE.Rel.NL
Johnny.English.Reborn.2011.TS2DVD.DD2.0.NL.Subs.EE.Rel.NL.nfo1.56 Kb torrent search
Torrent downloaded from AhaShare.com.txt58 bytes torrent search
Torrent downloaded from Demonoid.me.txt46 bytes torrent search
Torrent Downloaded from TorrentState.com.txt46 bytes torrent search
Torrent_downloaded_from_www.puretorrents.cc.txt36 bytes torrent search
Torrent downloaded from Rarbg.com.txt33 bytes torrent search
Torrent downloaded from silvertorrents.me.txt29 bytes torrent search

Sample info:
Duration: 00:23:27.61, start: 0.233567, bitrate: 5960 kb/s
Stream #0.0[0x1e0]: Video: mpeg2video, yuv420p, 720x480 [PAR 32:27 DAR 16:9], 8000 kb/s, 29.97 fps, 29.97 tbr, 90k tbn, 59.94 tbc
Stream #0.1[0x80]: Audio: ac3, 48000 Hz, stereo, s16, 192 kb/s
 

related search cloud

 torrent  downloaded  reborn  johnny  english  video  subs  rarbg  silvertorrents  puretorrents

Torrent Anonymous Download