Torrent Search | Torrent Meta Search | Widgets

The Hangover 2 (2011) DVDRip XviD MAXSPEED

       
1.47 Gb
found 2 years ago
▲ seeders: 537 ▼ leechers:88
your vote:
real:
fake:
Direct Download
THANK YOU
download torrent
  Direct Downloadsponsored

The Hangover 2 (2011) DVDRip XviD MAXSPEED torrent

Information about the torrent The Hangover 2 (2011) DVDRip XviD MAXSPEED. Seeders, leechers and torrent status is updated several times per day.

If you want to download the dvdrip torrent The Hangover 2 (2011) DVDRip XviD MAXSPEED you will need a torrent client.

Torrent Metasearch.

Torrent verified by torrentfunk.com.

tracker
seeders
leechers
↓ torrent client compatible list

↑ hide torrent client compatible list

Help torrentproject.com to stay alive .
Add links of torrentproject.com in your favorite forum, blog, youtube, facebook, twitter etc.
reviews
140
torrent contents

The Hangover 2 (2011) DVDRip XviD-MAXSPEED torrent

The Hangover 2 (2011) DVDRip XviD-MAXSPEED
The Hangover 2 (2011) DVDRip XviD-MAXSPEED www.torentz.3xforum.ro.avi1.47 Gb torrent search
sample.avi6.27 Mb torrent search
screencaps.jpeg616.86 Kb torrent search
The Hangover 2 (2011) DVDRip XviD-MAXSPEED.nfo2.98 Kb torrent search
Torrent downloaded from Demonoid.me.txt46 bytes torrent search
Torrent downloaded from Extratorrent.com.txt40 bytes torrent search
Torrent downloaded from Rarbg.com.txt33 bytes torrent search
Torrent downloaded from h33t.com.txt32 bytes torrent search

Sample info:
Duration: 01:37:35.07, start: 0.000000, bitrate: 2151 kb/s
Stream #0.0: Video: mpeg4 (Advanced Simple Profile), yuv420p, 672x288 [PAR 1:1 DAR 7:3], 29.97 tbr, 29.97 tbn, 29.98 tbc
Stream #0.1: Audio: mp3, 48000 Hz, stereo, s16, 192 kb/s
title	: The.Hangover.Part.II.2011.DVDRip
screenshots
The Hangover 2 2011 torrent screenshot 9BDA9CB9B94B0663EA83348B47EC53E3C08E69F0 The Hangover 2 2011  torrent screenshot 9bda9cb9b94b0663ea83348b47ec53e3c08e69f0 torrent The Hangover 2 2011
The Hangover 2 (2011) DVDRip XviD-MAXSPEED images are auto generated please report any inapropriate images
 

related search cloud

 downloaded  torrent  hangover  maxspeed  dvdrip  xvid  demonoid  rarbg  extratorrent  sample

Torrent Anonymous Download