Torrent Search | Torrent Meta Search | Widgets

Pornoakce 11

       
598.99 Mb
found 2 years ago
▲ seeders: 16 ▼ leechers:2
your vote:
real:
fake:
Direct Download
THANK YOU
download torrent
  Direct Downloadsponsored

Pornoakce 11 torrent

Information about the torrent Pornoakce 11. Seeders, leechers and torrent status is updated several times per day.

If you want to download the video torrent Pornoakce 11 you will need a torrent client.

Torrent Metasearch.

Torrent verified by kat.ph.

tracker
seeders
leechers
↓ torrent client compatible list

↑ hide torrent client compatible list

Help torrentproject.com to stay alive .
Add links of torrentproject.com in your favorite forum, blog, youtube, facebook, twitter etc.
reviews
140
torrent contents

Pornoakce 11.wmv torrent

Pornoakce 11.wmv598.99 Mb torrent search

Sample info:
Duration: 00:33:52.90, start: 0.000000, bitrate: 2471 kb/s
Stream #0.0(cze): Audio: wmav2, 44100 Hz, 2 channels, s16, 64 kb/s
Stream #0.1(cze): Video: wmv3 (Main), yuv420p, 640x360, 2400 kb/s, 30 tbr, 1k tbn, 1k tbc
screenshots
Pornoakce 11 torrent screenshot A058C14428B811C190C75FDD753A89E5E11DB6FF Pornoakce 11 torrent screenshot a058c14428b811c190c75fdd753a89e5e11db6ff torrent Pornoakce 11
Pornoakce 11.wmv images are auto generated please report any inapropriate images
 

related search cloud

 pornoakce

Torrent Anonymous Download