Torrent Search | Torrent Meta Search | Widgets

The Walking Dead 4x03 HDTV XviD Mp3 4 SBT

357.07 Mb
found 6 months ago
▲ seeders: 31 ▼ leechers:2
your vote:
real:
fake:
Direct Download
THANK YOU
download torrent
  Direct Downloadsponsored

The Walking Dead 4x03 HDTV XviD Mp3 4 SBT torrent

Information about the torrent The Walking Dead 4x03 HDTV XviD Mp3 4 SBT. Seeders, leechers and torrent status is updated several times per day.

If you want to download the tv torrent The Walking Dead 4x03 HDTV XviD Mp3 4 SBT you will need a torrent client.

Torrent Metasearch.

tracker
seeders
leechers
↓ torrent client compatible list

↑ hide torrent client compatible list

Help torrentproject.com to stay alive .
Add links of torrentproject.com in your favorite forum, blog, youtube, facebook, twitter etc.
reviews
140
torrent contents

The.Walking.Dead.4x03.HDTV.Xvid.Mp3.[4].[SBT].avi torrent

The.Walking.Dead.4x03.HDTV.Xvid.Mp3.[4].[SBT].avi357.07 Mb torrent search

Sample info:
Duration: 00:43:12.02, start: 0.000000, bitrate: 1155 kb/s
Stream #0:0: Video: mpeg4 (Simple Profile) (XVID / 0x44495658), yuv420p, 720x480 [SAR 1:1 DAR 3:2], SAR 16384:16383 DAR 8192:5461, 25 tbr, 25 tbn, 25 tbc
Stream #0:1: Audio: mp3 (U[0][0][0] / 0x0055), 44100 Hz, stereo, s16, 121 kb/s
screenshots
The Walking Dead 4x03 torrent screenshot AA5D111E377F8B0D951FF688D88003B5A5900E2E The Walking Dead 4x03  torrent screenshot aa5d111e377f8b0d951ff688d88003b5a5900e2e torrent The Walking Dead 4x03
The.Walking.Dead.4x03.HDTV.Xvid.Mp3.[4].[SBT].avi images are auto generated please report any inapropriate images
 

related search cloud

 xvid  hdtv  dead  walking

Torrent Anonymous Download