Torrent Search | Torrent Meta Search | Widgets

Johnny English Le Retour FRENCH DVDRip XviD AYMO

       
701.1 Mb
found 2 years ago
▲ seeders: 47 ▼ leechers:6
your vote:
real:
fake:
Direct Download
THANK YOU
download torrent
  Direct Downloadsponsored

Johnny English Le Retour FRENCH DVDRip XviD AYMO torrent

Information about the torrent Johnny English Le Retour FRENCH DVDRip XviD AYMO. Seeders, leechers and torrent status is updated several times per day.

If you want to download the dvdrip torrent Johnny English Le Retour FRENCH DVDRip XviD AYMO you will need a torrent client.

Torrent Metasearch.

Torrent verified by kat.ph.

tracker
seeders
leechers
↓ torrent client compatible list

↑ hide torrent client compatible list

Help torrentproject.com to stay alive .
Add links of torrentproject.com in your favorite forum, blog, youtube, facebook, twitter etc.
reviews
140
torrent contents

Johnny.English.Le.Retour.FRENCH.DVDRip.XviD-AYMO torrent

Johnny.English.Le.Retour.FRENCH.DVDRip.XviD-AYMO
johnny.avi701.09 Mb torrent search
aymo_xvid_jelr.jpg5.38 Kb torrent search
aymo_xvid_jelr.nfo387 bytes torrent search

Sample info:
Duration: 01:37:26.56, start: 0.000000, bitrate: 1005 kb/s
Stream #0.0: Video: mpeg4, yuv420p, 640x272 [PAR 1:1 DAR 40:17], 25 tbr, 25 tbn, 25 tbc
Stream #0.1: Audio: mp3, 48000 Hz, 2 channels, s16, 128 kb/s
screenshots
Johnny English Le Retour torrent screenshot B73E6F64891C97B3BF55655E8D110E5FE6AA5AEF Johnny English Le Retour  torrent screenshot b73e6f64891c97b3bf55655e8d110e5fe6aa5aef torrent Johnny English Le Retour
Johnny.English.Le.Retour.FRENCH.DVDRip.XviD-AYMO images are auto generated please report any inapropriate images
 

related search cloud

 aymo  xvid  johnny  jelr  french  english  retour  dvdrip

Torrent Anonymous Download