Torrent Search | Torrent Meta Search | Widgets

Johnny English Reborn (2011) BRRip XviD ExtraTorrentRG

       
704.32 Mb
found 2 years ago
▲ seeders: 2 ▼ leechers:3
your vote:
real:
fake:
Direct Download
THANK YOU
download torrent
  Direct Downloadsponsored

Johnny English Reborn (2011) BRRip XviD ExtraTorrentRG torrent

Information about the torrent Johnny English Reborn (2011) BRRip XviD ExtraTorrentRG. Seeders, leechers and torrent status is updated everyday.

If you want to download the hdrip torrent Johnny English Reborn (2011) BRRip XviD ExtraTorrentRG you will need a torrent client.

Torrent Metasearch.

Torrent verified by kat.ph.

tracker
seeders
leechers
↓ torrent client compatible list

↑ hide torrent client compatible list

Help torrentproject.com to stay alive .
Add links of torrentproject.com in your favorite forum, blog, youtube, facebook, twitter etc.
reviews
140
torrent contents

Johnny English Reborn[2011]BRRip XviD-ExtraTorrentRG torrent

Johnny English Reborn[2011]BRRip XviD-ExtraTorrentRG
Johnny English Reborn[2011]BRRip XviD-ExtraTorrentRG.avi698.66 Mb torrent search
SaMple.avi4.15 Mb torrent search
ExtraTorrentRG.mp41.45 Mb torrent search
Johnny English Reborn[2011]BRRip XviD-ExtraTorrentRG.srt64.17 Kb torrent search
JER-ETRG.nfo8.19 Kb torrent search
Torrent Downloaded From ExtraTorrent.com.txt353 bytes torrent search
Torrent Seeded & Tracked by Novalayer.com.txt167 bytes torrent search

Sample info:
Duration: 01:41:21.65, start: 0.000000, bitrate: 963 kb/s
Stream #0.0: Video: mpeg4 (Advanced Simple Profile), yuv420p, 640x272 [PAR 1:1 DAR 40:17], 23.98 tbr, 23.98 tbn, 23.98 tbc
Stream #0.1: Audio: mp3, 48000 Hz, stereo, s16, 128 kb/s
screenshots
Johnny English Reborn 2011 torrent screenshot C1CA19D742F140BF368C5DCCEF7AA306AF4EEE4C Johnny English Reborn 2011  torrent screenshot c1ca19d742f140bf368c5dccef7aa306af4eee4c torrent Johnny English Reborn 2011
Johnny English Reborn[2011]BRRip XviD-ExtraTorrentRG images are auto generated please report any inapropriate images
 

related search cloud

 extratorrentrg  johnny  brrip  xvid  reborn  english  torrent  tracked  novalayer  seeded

Torrent Anonymous Download