Torrent Search | Torrent Meta Search | Widgets

Johnny English Reborn (2011) 1080p MKV AC3 DTS Eng NL Subs

       
8.1 Gb
found 2 years ago
▲ seeders: 6 ▼ leechers:3
your vote:
real:
fake:
Direct Download
THANK YOU
download torrent
  Direct Downloadsponsored

Johnny English Reborn (2011) 1080p MKV AC3 DTS Eng NL Subs torrent

Information about the torrent Johnny English Reborn (2011) 1080p MKV AC3 DTS Eng NL Subs. Seeders, leechers and torrent status is updated everyday.

If you want to download the hdrip torrent Johnny English Reborn (2011) 1080p MKV AC3 DTS Eng NL Subs you will need a torrent client.

Torrent Metasearch.

Torrent verified by torlock.com.

tracker
seeders
leechers
↓ torrent client compatible list

↑ hide torrent client compatible list

Help torrentproject.com to stay alive .
Add links of torrentproject.com in your favorite forum, blog, youtube, facebook, twitter etc.
reviews
140
torrent contents

Johnny.English.Reborn.2011.1080p.MKV.AC3.DTS.Eng.NL.Subs torrent

Johnny.English.Reborn.2011.1080p.MKV.AC3.DTS.Eng.NL.Subs
 Johnny.English.Reborn.2011.1080p.MKV.AC3.DTS.Eng.NL.Subs
Johnny.English.Reborn.2011.1080p.MKV.AC3.DTS.Eng.NL.Subs.mkv8.1 Gb torrent search

Johnny.English.Reborn.2011.1080p.MKV.AC3.DTS.Eng.NL.Subs
Johnny.English.Reborn.2011.1080p.MKV.AC3.DTS.Eng.NL.Subs.nfo6.13 Kb torrent search
Torrent Downloaded From ExtraTorrent.com.txt353 bytes torrent search
Torrent downloaded from AhaShare.com.txt58 bytes torrent search
Torrent Downloaded from TorrentState.com.txt46 bytes torrent search
Torrent downloaded from Demonoid.me.txt46 bytes torrent search
Torrent downloaded from Rarbg.com.txt33 bytes torrent search
Torrent downloaded from silvertorrents.me.txt29 bytes torrent search
tracked_by_h33t_com.txt23 bytes torrent search

Sample info:
Duration: 01:41:21.66, start: 0.000000, bitrate: 2176 kb/s
Stream #0.0(eng): Video: h264 (High), yuv420p, 1920x800 [PAR 1:1 DAR 12:5], 23.98 fps, 23.98 tbr, 1k tbn, 47.95 tbc (default)
Stream #0.1(eng): Audio: dca (DTS), 48000 Hz, 5.1, s16, 1536 kb/s (default)
title	: DTS
Stream #0.2(eng): Audio: ac3, 48000 Hz, 5.1, s16, 640 kb/s
title	: AC3
Stream #0.3(eng): Subtitle: [0][0][0][0] / 0x0000 (default)
title	: English
Stream #0.4(dut): Subtitle: [0][0][0][0] / 0x0000
title	: Nederlands
screenshots
Johnny English Reborn 2011 torrent screenshot C52F6B2001DC403D8D2BEB0F7834FF373DCBC237 Johnny English Reborn 2011  torrent screenshot c52f6b2001dc403d8d2beb0f7834ff373dcbc237 torrent Johnny English Reborn 2011
Johnny.English.Reborn.2011.1080p.MKV.AC3.DTS.Eng.NL.Subs images are auto generated please report any inapropriate images
 

related search cloud

 downloaded  torrent  johnny  reborn  english  subs  silvertorrents  tracked  rarbg  extratorrent

Torrent Anonymous Download