Torrent Search | Torrent Meta Search | Widgets

Johnny English (2003) 720p HDTVRip H264 AAC Rx Phoenix RG

       
1.3 Gb
found 3 years ago
▲ seeders: 12 ▼ leechers:1
your vote:
real:
fake:
Direct Download
THANK YOU
download torrent
  Direct Downloadsponsored

Johnny English (2003) 720p HDTVRip H264 AAC Rx Phoenix RG torrent

Information about the torrent Johnny English (2003) 720p HDTVRip H264 AAC Rx Phoenix RG. Seeders, leechers and torrent status is updated several times per day.

If you want to download the hdrip torrent Johnny English (2003) 720p HDTVRip H264 AAC Rx Phoenix RG you will need a torrent client.

Torrent Metasearch.

Torrent verified by torlock.com.

tracker
seeders
leechers
↓ torrent client compatible list

↑ hide torrent client compatible list

Help torrentproject.com to stay alive .
Add links of torrentproject.com in your favorite forum, blog, youtube, facebook, twitter etc.
reviews
140
torrent contents

Johnny English (2003) 720p HDTVRip H264 AAC-Rx(Phoenix-RG) torrent

Johnny English 2003 720p HDTVRip H264 AAC-Rx(Phoenix-RG)
 Cover
Johnny English.jpg29.92 Kb torrent search

Johnny English 2003 720p HDTVRip H264 AAC-Rx(Phoenix-RG)
 Sites, Info, Tracker
INFO.txt1.46 Kb torrent search
Torrent downloaded from AhaShare.com.txt59 bytes torrent search
Torrent downloaded from thepiratebay.org.txt48 bytes torrent search
Torrent downloaded from ExtraTorrent.com.txt47 bytes torrent search
Torrent downloaded from Demonoid.com.txt47 bytes torrent search
tracked_by_h33t_com.txt23 bytes torrent search

Johnny English 2003 720p HDTVRip H264 AAC-Rx(Phoenix-RG)
 Sub
Johnny English 2003 720p HDTVRip H264 AAC-Rx(Phoenix-RG)_Eng.sub4.68 Mb torrent search
Johnny English 2003 720p HDTVRip H264 AAC-Rx(Phoenix-RG)_Rus.sub3.69 Mb torrent search
Johnny English 2003 720p HDTVRip H264 AAC-Rx(Phoenix-RG)_Eng.idx48.57 Kb torrent search
Johnny English 2003 720p HDTVRip H264 AAC-Rx(Phoenix-RG)_Rus.idx39.21 Kb torrent search

Johnny English 2003 720p HDTVRip H264 AAC-Rx(Phoenix-RG)
Johnny English 2003 720p HDTVRip H264 AAC-Rx(Phoenix-RG).mp41.3 Gb torrent search

Sample info:
Duration: 01:27:23.82, start: 0.000000, bitrate: 2123 kb/s
Stream #0.0	: Video: h264 (High), yuv420p, 1280x720 [PAR 1:1 DAR 16:9], 1796 kb/s, 23.98 fps, 23.98 tbr, 24k tbn, 47.95 tbc
creation_time	: 2010-09-27 19:14:25
Stream #0.1	: Audio: aac, 48000 Hz, 5.1, s16, 322 kb/s
creation_time	: 2010-09-27 19:16:22
screenshots
Johnny English 2003 720p torrent screenshot CD85DBCA4C73D581A7315F2EFBB9DBAFCCA681F9 Johnny English 2003 720p  torrent screenshot cd85dbca4c73d581a7315f2efbb9dbafcca681f9 torrent Johnny English 2003 720p
Johnny English (2003) 720p HDTVRip H264 AAC-Rx(Phoenix-RG) images are auto generated please report any inapropriate images
 

related search cloud

 english  johnny  phoenix  hdtvrip  torrent  downloaded  info  extratorrent  demonoid  tracked

Torrent Anonymous Download