Torrent Search | Torrent Meta Search | Widgets

White Chicks And Big Black Dicks Gang Bang

       
2.05 Gb
found 2 years ago
▲ seeders: 8 ▼ leechers:1
your vote:
real:
fake:
Direct Download
THANK YOU
download torrent
  Direct Downloadsponsored

White Chicks And Big Black Dicks Gang Bang torrent

Information about the torrent White Chicks And Big Black Dicks Gang Bang. Seeders, leechers and torrent status is updated everyday.

If you want to download the video torrent White Chicks And Big Black Dicks Gang Bang you will need a torrent client.

Torrent Metasearch.

Torrent verified by kat.ph.

tracker
seeders
leechers
↓ torrent client compatible list

↑ hide torrent client compatible list

Help torrentproject.com to stay alive .
Add links of torrentproject.com in your favorite forum, blog, youtube, facebook, twitter etc.
reviews
140
torrent contents

White Chicks And Big Black Dicks Gang Bang torrent

White Chicks And Big Black Dicks Gang Bang
White Chicks And Big Black Dicks Gang Bang CD1.avi698.85 Mb torrent search
White Chicks And Big Black Dicks Gang Bang CD2.avi699.19 Mb torrent search
White Chicks And Big Black Dicks Gang Bang CD3.avi698.99 Mb torrent search

Sample info:
Duration: 01:13:59.53, start: 0.000000, bitrate: 1321 kb/s
Stream #0.0: Video: mpeg4, yuv420p, 512x384 [PAR 1:1 DAR 4:3], 29.97 tbr, 29.97 tbn, 29.98 tbc
Stream #0.1: Audio: mp3, 48000 Hz, 2 channels, s16, 137 kb/s
screenshots
White Chicks And Big torrent screenshot D02A74A027D3CAC798C7F29185AD55979A44722A White Chicks And Big  torrent screenshot d02a74a027d3cac798c7f29185ad55979a44722a torrent White Chicks And Big
White Chicks And Big Black Dicks Gang Bang images are auto generated please report any inapropriate images
 

related search cloud

 gang  bang  dicks  black  chicks  white

Torrent Anonymous Download