Torrent Search | Torrent Meta Search | Widgets

Shakira Waka Waka Official (2010) FIFA

       
50.96 Mb
found 3 years ago
▲ seeders: 6 ▼ leechers:1
your vote:
real:
fake:
Direct Download
THANK YOU
download torrent
  Direct Downloadsponsored

Shakira Waka Waka Official (2010) FIFA torrent

Information about the torrent Shakira Waka Waka Official (2010) FIFA. Seeders, leechers and torrent status is updated several times per day.

If you want to download the video torrent Shakira Waka Waka Official (2010) FIFA you will need a torrent client.

Torrent Metasearch.

Torrent verified by torlock.com.

tracker
seeders
leechers
↓ torrent client compatible list

↑ hide torrent client compatible list

Help torrentproject.com to stay alive .
Add links of torrentproject.com in your favorite forum, blog, youtube, facebook, twitter etc.
reviews
140
torrent contents

Shakira - Waka Waka - Official (2010) FIFA torrent

Shakira - Waka Waka - Official 2010 FIFA
Shakira - Waka Waka - Official 2010 FIFA World Cup.mkv50.96 Mb torrent search
Torrent_downloaded_from_Demonoid.com.txt47 bytes torrent search

Sample info:
Duration: 00:03:30.69, start: 0.000000, bitrate: N/A
Stream #0.0: Video: h264 (High), yuv420p, 1280x720, PAR 1:1 DAR 16:9, 24 fps, 24 tbr, 1k tbn, 48 tbc (default)
Stream #0.1: Audio: aac, 44100 Hz, stereo, s16 (default)
screenshots
Shakira Waka Waka Official torrent screenshot D03101D1CEA56B35998F2F6752A32A5FF4409AF0 Shakira Waka Waka Official  torrent screenshot d03101d1cea56b35998f2f6752a32a5ff4409af0 torrent Shakira Waka Waka Official
Shakira - Waka Waka - Official (2010) FIFA images are auto generated please report any inapropriate images
 

related search cloud

 waka  shakira  fifa  official  demonoid  downloaded  torrent  world

Torrent Anonymous Download