Torrent Search | Torrent Meta Search | Widgets

Star Trek The Original Series Remastered And Enhanced

       
36.9 Gb
found 3 years ago
▲ seeders: 15 ▼ leechers:24
your vote:
real:
fake:
Direct Download
THANK YOU
download torrent
  Direct Downloadsponsored

Star Trek The Original Series Remastered And Enhanced torrent

Information about the torrent Star Trek The Original Series Remastered And Enhanced. Seeders, leechers and torrent status is updated several times per day.

If you want to download the tv torrent Star Trek The Original Series Remastered And Enhanced you will need a torrent client.

Torrent Metasearch.

Torrent verified by isohunt.com.

tracker
seeders
leechers
↓ torrent client compatible list

↑ hide torrent client compatible list

Help torrentproject.com to stay alive .
Add links of torrentproject.com in your favorite forum, blog, youtube, facebook, twitter etc.
reviews
140
torrent contents

Star Trek The Original Series Remastered And Enhanced torrent

Star Trek The Original Series Remastered And Enhanced
 Season 1
S01E00 The Cage (Extended Version).avi498.95 Mb torrent search
S01E00 The Cage.avi424.69 Mb torrent search
S01E01 The Man Trap Preview Trailer.avi9.18 Mb torrent search
S01E01 The Man Trap.avi399.66 Mb torrent search
S01E02 Charlie X Preview Trailer.avi8.86 Mb torrent search
S01E02 Charlie X.avi399.63 Mb torrent search
S01E03 Where No Man Has Gone Before Preview Trailer.avi9.16 Mb torrent search
S01E03 Where No Man Has Gone Before.avi399.58 Mb torrent search
S01E04 The Naked Time Preview Trailer.avi9.16 Mb torrent search
S01E04 The Naked Time.avi399.7 Mb torrent search
S01E05 The Enemy Within Preview Trailer.avi8.92 Mb torrent search
S01E05 The Enemy Within.avi399.46 Mb torrent search
S01E06 Mudds Women Preview Trailer.avi9.24 Mb torrent search
S01E06 Mudds Women.avi399.69 Mb torrent search
S01E07 What Are Little Girls Made of Preview Trailer.avi8.86 Mb torrent search
S01E07 What Are Little Girls Made of.avi399.6 Mb torrent search
S01E08 Miri Preview Trailer.avi9.01 Mb torrent search
S01E08 Miri.avi399.64 Mb torrent search
S01E09 Dagger of The Mind Preview Trailer.avi8.98 Mb torrent search
S01E09 Dagger of The Mind.avi399.49 Mb torrent search
S01E10 The Corbomite Maneuver Preview Trailer.avi9.25 Mb torrent search
S01E10 The Corbomite Maneuver.avi399.57 Mb torrent search
S01E11 The Menagerie Part I Preview Trailer.avi9.06 Mb torrent search
S01E11 The Menagerie Part I.avi399.7 Mb torrent search
S01E12 The Menagerie Part II Preview Trailer.avi9.25 Mb torrent search
S01E12 The Menagerie Part II.avi399.58 Mb torrent search
S01E13 The Conscience of The King Preview Trailer.avi8.88 Mb torrent search
S01E13 The Conscience of The King.avi399.69 Mb torrent search

Sample info:
Duration: 01:30:03.49, start: 0.000000, bitrate: 1085 kb/s
Stream #0.0: Video: mpeg4, yuv420p, 720x416 [PAR 1:1 DAR 45:26], 29.97 tbr, 29.97 tbn, 29.98 tbc
Stream #0.1: Audio: mp3, 48000 Hz, 2 channels, s16, 128 kb/s
screenshots
Star Trek The Original torrent screenshot D03863F159023AC8F1C259A8AB75BB53F21319D5 Star Trek The Original  torrent screenshot d03863f159023ac8f1c259a8ab75bb53f21319d5 torrent Star Trek The Original
Star Trek The Original Series Remastered And Enhanced images are auto generated please report any inapropriate images
 

related search cloud

 trailer  preview  part  menagerie  mudds  within  girls  little  women  made

Torrent Anonymous Download