Torrent Search | Torrent Meta Search | Widgets

Princess Protection Program (2009) DVDRip XviD

       
699.98 Mb
found 3 years ago
▲ seeders: 22 ▼ leechers:5
your vote:
real:
fake:
Direct Download
THANK YOU
download torrent
  Direct Downloadsponsored

Princess Protection Program (2009) DVDRip XviD torrent

Information about the torrent Princess Protection Program (2009) DVDRip XviD. Seeders, leechers and torrent status is updated several times per day.

If you want to download the dvdrip torrent Princess Protection Program (2009) DVDRip XviD you will need a torrent client.

Torrent Metasearch.

.

tracker
seeders
leechers
↓ torrent client compatible list

↑ hide torrent client compatible list

Help torrentproject.com to stay alive .
Add links of torrentproject.com in your favorite forum, blog, youtube, facebook, twitter etc.
reviews
140
torrent contents

Princess.Protection.Program.2009.DVDRip.XviD torrent

Princess.Protection.Program.2009.DVDRip.XviD
AhaShare.com.txt555 bytes torrent search
Princess.Protection.Program.2009.DVDRip.XviD-VoMiT.avi699.91 Mb torrent search
Princess.Protection.Program.2009.DVDRip.XviD-VoMiT.jpg64.57 Kb torrent search

Sample info:
Duration: 01:29:25.32, start: 0.000000, bitrate: 1094 kb/s
Stream #0.0: Video: mpeg4 (Advanced Simple Profile), yuv420p, 608x336 [PAR 1:1 DAR 38:21], 23.98 fps, 23.98 tbr, 23.98 tbn, 23.98 tbc
Stream #0.1: Audio: ac3, 48000 Hz, 5.1, s16, 384 kb/s
screenshots
Princess Protection Program 2009 torrent screenshot D0393081507F4C313B4072299CD565162FB843FC Princess Protection Program 2009  torrent screenshot d0393081507f4c313b4072299cd565162fb843fc torrent Princess Protection Program 2009
Princess.Protection.Program.2009.DVDRip.XviD images are auto generated please report any inapropriate images
 

related search cloud

 prince  program  dvdrip  protection  xvid  vomit  ahashare

Torrent Anonymous Download