Torrent Search | Torrent Meta Search | Widgets

I Pinguini Di Mr Poppers (2011) iTALiAN MD BRRip XviD IDN CREW

       
687.65 Mb
found 2 years ago
▲ seeders: 5 ▼ leechers:0
your vote:
real:
fake:
Direct Download
THANK YOU
download torrent
  Direct Downloadsponsored

I Pinguini Di Mr Poppers (2011) iTALiAN MD BRRip XviD IDN CREW torrent

Information about the torrent I Pinguini Di Mr Poppers (2011) iTALiAN MD BRRip XviD IDN CREW. Seeders, leechers and torrent status is updated everyday.

If you want to download the hdrip torrent I Pinguini Di Mr Poppers (2011) iTALiAN MD BRRip XviD IDN CREW you will need a torrent client.

Torrent Metasearch.

Torrent verified by torlock.com.

tracker
seeders
leechers
↓ torrent client compatible list

↑ hide torrent client compatible list

Help torrentproject.com to stay alive .
Add links of torrentproject.com in your favorite forum, blog, youtube, facebook, twitter etc.
reviews
140
torrent contents

I.Pinguini.Di.Mr.Poppers.2011.iTALiAN.MD.BRRip.XviD-IDN_CREW.avi torrent

I.Pinguini.Di.Mr.Poppers.2011.iTALiAN.MD.BRRip.XviD-IDN_CREW.avi687.65 Mb torrent search

Sample info:
Duration: 01:34:03.05, start: 0.000000, bitrate: 1022 kb/s
Stream #0.0: Video: mpeg4 (Advanced Simple Profile), yuv420p, 640x352 [PAR 1:1 DAR 20:11], 23.98 tbr, 23.98 tbn, 23.98 tbc
Stream #0.1: Audio: mp3, 48000 Hz, stereo, s16, 128 kb/s
screenshots
I Pinguini Di Mr torrent screenshot F9976E939395D79091AEA08E666D148140F8C5F2 I Pinguini Di Mr  torrent screenshot f9976e939395d79091aea08e666d148140f8c5f2 torrent I Pinguini Di Mr
I.Pinguini.Di.Mr.Poppers.2011.iTALiAN.MD.BRRip.XviD-IDN_CREW.avi images are auto generated please report any inapropriate images
 

related search cloud

 xvid  crew  brrip  italian  poppers  pinguini

Torrent Anonymous Download