Torrent Search | Torrent Meta Search | Widgets

LIE TO ME s01

       
4.44 Gb
found 2 years ago
▲ seeders: 8 ▼ leechers:4
your vote:
real:
fake:
Direct Download
THANK YOU
download torrent
  Direct Downloadsponsored

LIE TO ME s01 torrent

Information about the torrent LIE TO ME s01. Seeders, leechers and torrent status is updated everyday.

If you want to download the video torrent LIE TO ME s01 you will need a torrent client.

Torrent Metasearch.

Torrent verified by torlock.com.

tracker
seeders
leechers
↓ torrent client compatible list

↑ hide torrent client compatible list

Help torrentproject.com to stay alive .
Add links of torrentproject.com in your favorite forum, blog, youtube, facebook, twitter etc.
reviews
140
torrent contents

LIE TO ME s01 torrent

LIE TO ME s01
Lie.To.Me.1x01.avi350.02 Mb torrent search
Lie.To.Me.1x02.avi349.96 Mb torrent search
Lie.To.Me.1x03.avi349.99 Mb torrent search
Lie.To.Me.1x04.avi349.95 Mb torrent search
Lie.To.Me.1x05.avi350.56 Mb torrent search
Lie.To.Me.1x06.avi350.6 Mb torrent search
Lie.To.Me.1x07.avi350.53 Mb torrent search
Lie.To.Me.1x08.avi350.64 Mb torrent search
Lie.To.Me.1x09.avi350.53 Mb torrent search
Lie.To.Me.1x10.avi350.68 Mb torrent search
Lie.To.Me.1x11.avi350.78 Mb torrent search
Lie.To.Me.1x12.avi343.26 Mb torrent search
Lie.To.Me.1x13.avi350.82 Mb torrent search

Sample info:
Duration: 00:43:59.47, start: 0.000000, bitrate: 1114 kb/s
Stream #0.0: Video: mpeg4, yuv420p, 624x352 [PAR 1:1 DAR 39:22], 23.98 tbr, 23.98 tbn, 23.98 tbc
Stream #0.1: Audio: mp3, 48000 Hz, 2 channels, s16, 137 kb/s
screenshots
LIE TO ME s01 torrent screenshot F99A810293BF64D70FCD66549732C3E958855825 LIE TO ME s01 torrent screenshot f99a810293bf64d70fcd66549732c3e958855825 torrent LIE TO ME s01
LIE TO ME s01 images are auto generated please report any inapropriate images
Torrent Anonymous Download